  0
SECTION
  2
HEADER
  9
$ACADVER
  1
AC1014
  9
$ACADMAINTVER
 70
     9
  9
$DWGCODEPAGE
  3
ANSI_1252
  9
$INSBASE
 10
0.0
 20
0.0
 30
0.0
  9
$EXTMIN
 10
4.440980591744915
 20
3.146002067298751
 30
0.0
  9
$EXTMAX
 10
7.856565355251078
 20
7.919636580237543
 30
0.0
  9
$LIMMIN
 10
0.0
 20
0.0
  9
$LIMMAX
 10
12.0
 20
9.0
  9
$ORTHOMODE
 70
     0
  9
$REGENMODE
 70
     1
  9
$FILLMODE
 70
     1
  9
$QTEXTMODE
 70
     0
  9
$MIRRTEXT
 70
     1
  9
$DRAGMODE
 70
     2
  9
$LTSCALE
 40
1.0
  9
$OSMODE
 70
     0
  9
$ATTMODE
 70
     1
  9
$TEXTSIZE
 40
0.2
  9
$TRACEWID
 40
0.05
  9
$TEXTSTYLE
  7
STANDARD
  9
$CLAYER
  8
0
  9
$CELTYPE
  6
BYLAYER
  9
$CECOLOR
 62
   256
  9
$CELTSCALE
 40
1.0
  9
$DELOBJ
 70
     1
  9
$DISPSILH
 70
     0
  9
$DIMSCALE
 40
1.0
  9
$DIMASZ
 40
0.18
  9
$DIMEXO
 40
0.0625
  9
$DIMDLI
 40
0.38
  9
$DIMRND
 40
0.0
  9
$DIMDLE
 40
0.0
  9
$DIMEXE
 40
0.18
  9
$DIMTP
 40
0.0
  9
$DIMTM
 40
0.0
  9
$DIMTXT
 40
0.18
  9
$DIMCEN
 40
0.09
  9
$DIMTSZ
 40
0.0
  9
$DIMTOL
 70
     0
  9
$DIMLIM
 70
     0
  9
$DIMTIH
 70
     1
  9
$DIMTOH
 70
     1
  9
$DIMSE1
 70
     0
  9
$DIMSE2
 70
     0
  9
$DIMTAD
 70
     0
  9
$DIMZIN
 70
     0
  9
$DIMBLK
  1

  9
$DIMASO
 70
     1
  9
$DIMSHO
 70
     1
  9
$DIMPOST
  1

  9
$DIMAPOST
  1

  9
$DIMALT
 70
     0
  9
$DIMALTD
 70
     2
  9
$DIMALTF
 40
25.4
  9
$DIMLFAC
 40
1.0
  9
$DIMTOFL
 70
     0
  9
$DIMTVP
 40
0.0
  9
$DIMTIX
 70
     0
  9
$DIMSOXD
 70
     0
  9
$DIMSAH
 70
     0
  9
$DIMBLK1
  1

  9
$DIMBLK2
  1

  9
$DIMSTYLE
  2
STANDARD
  9
$DIMCLRD
 70
     0
  9
$DIMCLRE
 70
     0
  9
$DIMCLRT
 70
     0
  9
$DIMTFAC
 40
1.0
  9
$DIMGAP
 40
0.09
  9
$DIMJUST
 70
     0
  9
$DIMSD1
 70
     0
  9
$DIMSD2
 70
     0
  9
$DIMTOLJ
 70
     1
  9
$DIMTZIN
 70
     0
  9
$DIMALTZ
 70
     0
  9
$DIMALTTZ
 70
     0
  9
$DIMFIT
 70
     3
  9
$DIMUPT
 70
     0
  9
$DIMUNIT
 70
     2
  9
$DIMDEC
 70
     2
  9
$DIMTDEC
 70
     2
  9
$DIMALTU
 70
     2
  9
$DIMALTTD
 70
     2
  9
$DIMTXSTY
  7
STANDARD
  9
$DIMAUNIT
 70
     0
  9
$LUNITS
 70
     2
  9
$LUPREC
 70
     4
  9
$SKETCHINC
 40
0.1
  9
$FILLETRAD
 40
0.5
  9
$AUNITS
 70
     0
  9
$AUPREC
 70
     0
  9
$MENU
  1
.
  9
$ELEVATION
 40
0.0
  9
$PELEVATION
 40
0.0
  9
$THICKNESS
 40
0.0
  9
$LIMCHECK
 70
     0
  9
$BLIPMODE
 70
     0
  9
$CHAMFERA
 40
0.5
  9
$CHAMFERB
 40
0.5
  9
$CHAMFERC
 40
1.0
  9
$CHAMFERD
 40
0.0
  9
$SKPOLY
 70
     0
  9
$TDCREATE
 40
2452181.667711921
  9
$TDUPDATE
 40
2452643.340317361
  9
$TDINDWG
 40
0.0014652778
  9
$TDUSRTIMER
 40
0.0014652778
  9
$USRTIMER
 70
     1
  9
$ANGBASE
 50
0.0
  9
$ANGDIR
 70
     0
  9
$PDMODE
 70
     0
  9
$PDSIZE
 40
0.0
  9
$PLINEWID
 40
0.0
  9
$COORDS
 70
     1
  9
$SPLFRAME
 70
     0
  9
$SPLINETYPE
 70
     6
  9
$SPLINESEGS
 70
     8
  9
$ATTDIA
 70
     1
  9
$ATTREQ
 70
     1
  9
$HANDLING
 70
-16383
  9
$HANDSEED
  5
2E5
  9
$SURFTAB1
 70
     6
  9
$SURFTAB2
 70
     6
  9
$SURFTYPE
 70
     6
  9
$SURFU
 70
     6
  9
$SURFV
 70
     6
  9
$UCSNAME
  2

  9
$UCSORG
 10
0.0
 20
0.0
 30
0.0
  9
$UCSXDIR
 10
1.0
 20
0.0
 30
0.0
  9
$UCSYDIR
 10
0.0
 20
1.0
 30
0.0
  9
$PUCSNAME
  2

  9
$PUCSORG
 10
0.0
 20
0.0
 30
0.0
  9
$PUCSXDIR
 10
1.0
 20
0.0
 30
0.0
  9
$PUCSYDIR
 10
0.0
 20
1.0
 30
0.0
  9
$USERI1
 70
     0
  9
$USERI2
 70
     0
  9
$USERI3
 70
     0
  9
$USERI4
 70
     0
  9
$USERI5
 70
     0
  9
$USERR1
 40
0.0
  9
$USERR2
 40
0.0
  9
$USERR3
 40
0.0
  9
$USERR4
 40
0.0
  9
$USERR5
 40
0.0
  9
$WORLDVIEW
 70
     1
  9
$SHADEDGE
 70
     3
  9
$SHADEDIF
 70
    70
  9
$TILEMODE
 70
     1
  9
$MAXACTVP
 70
    64
  9
$PINSBASE
 10
0.0
 20
0.0
 30
0.0
  9
$PLIMCHECK
 70
     0
  9
$PEXTMIN
 10
1.000000000000000E+20
 20
1.000000000000000E+20
 30
1.000000000000000E+20
  9
$PEXTMAX
 10
-1.000000000000000E+20
 20
-1.000000000000000E+20
 30
-1.000000000000000E+20
  9
$PLIMMIN
 10
0.0
 20
0.0
  9
$PLIMMAX
 10
12.0
 20
9.0
  9
$UNITMODE
 70
     0
  9
$VISRETAIN
 70
     1
  9
$PLINEGEN
 70
     0
  9
$PSLTSCALE
 70
     1
  9
$TREEDEPTH
 70
  3020
  9
$PICKSTYLE
 70
     1
  9
$CMLSTYLE
  2
STANDARD
  9
$CMLJUST
 70
     0
  9
$CMLSCALE
 40
1.0
  9
$PROXYGRAPHICS
 70
     1
  9
$MEASUREMENT
 70
     0
  0
ENDSEC
  0
SECTION
  2
CLASSES
  0
CLASS
  1
ACDBDICTIONARYWDFLT
  2
AcDbDictionaryWithDefault
  3
AutoCAD 2000
 90
        0
280
     0
281
     0
  0
CLASS
  1
ACDBPLACEHOLDER
  2
AcDbPlaceHolder
  3
AutoCAD 2000
 90
        0
280
     0
281
     0
  0
CLASS
  1
LAYOUT
  2
AcDbLayout
  3
AutoCAD 2000
 90
        0
280
     0
281
     0
  0
CLASS
  1
LONG_TRANSACTION
  2
AcDbLongTransaction
  3
AutoCAD 2000
 90
        0
280
     0
281
     0
  0
CLASS
  1
LWPOLYLINE
  2
AcDbPolyline
  3
AutoCAD 2000
 90
        0
280
     0
281
     1
  0
CLASS
  1
HATCH
  2
AcDbHatch
  3
AutoCAD 2000
 90
        0
280
     0
281
     1
  0
CLASS
  1
XRECORD
  2
AcDbXrecord
  3
AutoCAD 2000
 90
        0
280
     0
281
     0
  0
ENDSEC
  0
SECTION
  2
TABLES
  0
TABLE
  2
VPORT
  5
8
330
0
100
AcDbSymbolTable
 70
     3
  0
VPORT
  5
2BE
330
8
100
AcDbSymbolTableRecord
100
AcDbViewportTableRecord
  2
*ACTIVE
 70
     0
 10
0.0
 20
0.0
 11
1.0
 21
1.0
 12
6.581321473842802
 22
5.283088231257247
 13
0.0
 23
0.0
 14
0.5
 24
0.5
 15
0.5
 25
0.5
 16
0.0
 26
0.0
 36
1.0
 17
0.0
 27
0.0
 37
0.0
 40
8.99999999580908
 41
1.462515883100381
 42
50.0
 43
0.0
 44
0.0
 50
0.0
 51
0.0
 71
     0
 72
   100
 73
     1
 74
     3
 75
     0
 76
     0
 77
     0
 78
     0
  0
ENDTAB
  0
TABLE
  2
LTYPE
  5
5
330
0
100
AcDbSymbolTable
 70
     1
  0
LTYPE
  5
14
330
5
100
AcDbSymbolTableRecord
100
AcDbLinetypeTableRecord
  2
BYBLOCK
 70
     0
  3

 72
    65
 73
     0
 40
0.0
  0
LTYPE
  5
15
330
5
100
AcDbSymbolTableRecord
100
AcDbLinetypeTableRecord
  2
BYLAYER
 70
     0
  3

 72
    65
 73
     0
 40
0.0
  0
LTYPE
  5
16
330
5
100
AcDbSymbolTableRecord
100
AcDbLinetypeTableRecord
  2
CONTINUOUS
 70
     0
  3
Solid line
 72
    65
 73
     0
 40
0.0
  0
ENDTAB
  0
TABLE
  2
LAYER
  5
2
330
0
100
AcDbSymbolTable
 70
     4
  0
LAYER
  5
10
330
2
100
AcDbSymbolTableRecord
100
AcDbLayerTableRecord
  2
0
 70
     0
 62
     7
  6
CONTINUOUS
  0
LAYER
  5
34
330
2
100
AcDbSymbolTableRecord
100
AcDbLayerTableRecord
  2
L
 70
     0
 62
     7
  6
CONTINUOUS
  0
LAYER
  5
45
330
2
100
AcDbSymbolTableRecord
100
AcDbLayerTableRecord
  2
DEFPOINTS
 70
     0
 62
     7
  6
CONTINUOUS
  0
LAYER
  5
88
330
2
100
AcDbSymbolTableRecord
100
AcDbLayerTableRecord
  2
TX
 70
     0
 62
   150
  6
CONTINUOUS
  0
ENDTAB
  0
TABLE
  2
STYLE
  5
3
330
0
100
AcDbSymbolTable
 70
     3
  0
STYLE
  5
11
330
3
100
AcDbSymbolTableRecord
100
AcDbTextStyleTableRecord
  2
STANDARD
 70
     0
 40
0.0
 41
1.0
 50
0.0
 71
     0
 42
0.2
  3
txt
  4

  0
STYLE
  5
35
330
3
100
AcDbSymbolTableRecord
100
AcDbTextStyleTableRecord
  2
REG
 70
     0
 40
0.0
 41
1.0
 50
0.0
 71
     0
 42
0.09375
  3
E:\R13\com\fonts\ARCHITXT.SHX
  4

  0
STYLE
  5
36
330
3
100
AcDbSymbolTableRecord
100
AcDbTextStyleTableRecord
  2
DIMTXT
 70
     0
 40
0.0
 41
1.0
 50
0.0
 71
     0
 42
1.125
  3
archt.shx
  4

  0
ENDTAB
  0
TABLE
  2
VIEW
  5
6
330
0
100
AcDbSymbolTable
 70
     0
  0
ENDTAB
  0
TABLE
  2
UCS
  5
7
330
0
100
AcDbSymbolTable
 70
     0
  0
ENDTAB
  0
TABLE
  2
APPID
  5
9
330
0
100
AcDbSymbolTable
 70
     1
  0
APPID
  5
12
330
9
100
AcDbSymbolTableRecord
100
AcDbRegAppTableRecord
  2
ACAD
 70
     0
  0
ENDTAB
  0
TABLE
  2
DIMSTYLE
  5
A
330
0
100
AcDbSymbolTable
 70
     6
  0
DIMSTYLE
105
27
102
{ACAD_REACTORS
330
C1
330
CF
102
}
330
A
100
AcDbSymbolTableRecord
100
AcDbDimStyleTableRecord
  2
STANDARD
 70
     0
  3

  4

  5

  6

  7

 40
1.0
 41
0.18
 42
0.0625
 43
0.38
 44
0.18
 45
0.0
 46
0.0
 47
0.0
 48
0.0
140
0.18
141
0.09
142
0.0
143
25.4
144
1.0
145
0.0
146
1.0
147
0.09
 71
     0
 72
     0
 73
     1
 74
     1
 75
     0
 76
     0
 77
     0
 78
     0
170
     0
171
     2
172
     0
173
     0
174
     0
175
     0
176
     0
177
     0
178
     0
270
     2
271
     2
272
     2
273
     2
274
     2
340
11
275
     0
280
     0
281
     0
282
     0
283
     1
284
     0
285
     0
286
     0
287
     3
288
     0
  0
DIMSTYLE
105
37
330
A
100
AcDbSymbolTableRecord
100
AcDbDimStyleTableRecord
  2
1
 70
     0
  3

  4

  5

  6

  7

 40
1.0
 41
1.125
 42
0.5
 43
0.375
 44
1.19921875
 45
0.0
 46
0.5
 47
0.0
 48
0.0
140
1.125
141
0.125
142
0.0
143
25.4
144
1.0
145
0.0
146
0.8
147
0.5625
 71
     0
 72
     0
 73
     0
 74
     0
 75
     0
 76
     0
 77
     1
 78
     3
170
     0
171
     2
172
     1
173
     0
174
     1
175
     0
176
   133
177
   133
178
   150
270
     2
271
     3
272
     3
273
     2
274
     2
340
36
275
     0
280
     0
281
     0
282
     0
283
     1
284
     0
285
     0
286
     0
287
     4
288
     0
  0
DIMSTYLE
105
38
330
A
100
AcDbSymbolTableRecord
100
AcDbDimStyleTableRecord
  2
1$2
 70
     0
  3

  4

  5
DOTSMALL
  6

  7

 40
1.0
 41
1.5
 42
0.5
 43
0.375
 44
1.19921875
 45
0.0
 46
0.5
 47
0.0
 48
0.0
140
0.75
141
0.125
142
0.0
143
25.4
144
1.0
145
0.0
146
0.8
147
0.5625
 71
     0
 72
     0
 73
     0
 74
     0
 75
     0
 76
     0
 77
     1
 78
     3
170
     0
171
     2
172
     1
173
     0
174
     1
175
     0
176
   133
177
   133
178
   150
270
     2
271
     3
272
     3
273
     2
274
     2
340
36
275
     0
280
     0
281
     0
282
     0
283
     1
284
     0
285
     0
286
     0
287
     4
288
     0
  0
DIMSTYLE
105
39
330
A
100
AcDbSymbolTableRecord
100
AcDbDimStyleTableRecord
  2
1$4
 70
     0
  3

  4

  5

  6

  7
DOTSMALL
 40
1.0
 41
1.5
 42
0.5
 43
0.375
 44
1.19921875
 45
0.0
 46
0.5
 47
0.0
 48
0.0
140
0.75
141
0.125
142
0.0
143
25.4
144
1.0
145
0.0
146
0.8
147
0.5625
 71
     0
 72
     0
 73
     0
 74
     0
 75
     0
 76
     0
 77
     1
 78
     3
170
     0
171
     2
172
     1
173
     1
174
     1
175
     0
176
   133
177
   133
178
   150
270
     2
271
     3
272
     3
273
     2
274
     2
340
36
275
     0
280
     0
281
     0
282
     0
283
     1
284
     0
285
     0
286
     0
287
     4
288
     0
  0
DIMSTYLE
105
3A
330
A
100
AcDbSymbolTableRecord
100
AcDbDimStyleTableRecord
  2
1$3
 70
     0
  3

  4

  5
DOTSMALL
  6

  7

 40
1.0
 41
1.5
 42
0.5
 43
0.375
 44
1.19921875
 45
0.0
 46
0.5
 47
0.0
 48
0.0
140
0.75
141
0.125
142
0.0
143
25.4
144
1.0
145
0.0
146
0.8
147
0.5625
 71
     0
 72
     0
 73
     0
 74
     0
 75
     0
 76
     0
 77
     1
 78
     3
170
     0
171
     2
172
     1
173
     0
174
     1
175
     0
176
   133
177
   133
178
   150
270
     2
271
     3
272
     3
273
     2
274
     2
340
36
275
     0
280
     0
281
     0
282
     0
283
     1
284
     0
285
     0
286
     0
287
     4
288
     0
  0
DIMSTYLE
105
3B
330
A
100
AcDbSymbolTableRecord
100
AcDbDimStyleTableRecord
  2
1$7
 70
     0
  3

  4

  5

  6

  7

 40
1.0
 41
1.0
 42
0.5
 43
0.375
 44
1.19921875
 45
0.0
 46
0.5
 47
0.0
 48
0.0
140
0.75
141
0.125
142
0.0
143
25.4
144
1.0
145
0.0
146
0.8
147
0.5625
 71
     0
 72
     0
 73
     0
 74
     0
 75
     0
 76
     0
 77
     1
 78
     3
170
     0
171
     2
172
     1
173
     0
174
     1
175
     0
176
   133
177
   133
178
   150
270
     2
271
     3
272
     3
273
     2
274
     2
340
36
275
     0
280
     0
281
     0
282
     0
283
     1
284
     0
285
     0
286
     0
287
     4
288
     0
  0
ENDTAB
  0
TABLE
  2
BLOCK_RECORD
  5
1
330
0
100
AcDbSymbolTable
 70
     5
  0
BLOCK_RECORD
  5
1F
102
{ACAD_XDICTIONARY
360
2E1
102
}
330
1
100
AcDbSymbolTableRecord
100
AcDbBlockTableRecord
  2
*MODEL_SPACE
  0
BLOCK_RECORD
  5
1B
102
{ACAD_XDICTIONARY
360
2DF
102
}
330
1
100
AcDbSymbolTableRecord
100
AcDbBlockTableRecord
  2
*PAPER_SPACE
  0
BLOCK_RECORD
  5
2B
330
1
100
AcDbSymbolTableRecord
100
AcDbBlockTableRecord
  2
_DOT
  0
BLOCK_RECORD
  5
30
330
1
100
AcDbSymbolTableRecord
100
AcDbBlockTableRecord
  2
_DOTSMALL
  0
BLOCK_RECORD
  5
C2
330
1
100
AcDbSymbolTableRecord
100
AcDbBlockTableRecord
  2
*D3
  0
BLOCK_RECORD
  5
D0
330
1
100
AcDbSymbolTableRecord
100
AcDbBlockTableRecord
  2
*D4
  0
ENDTAB
  0
ENDSEC
  0
SECTION
  2
BLOCKS
  0
BLOCK
  5
20
330
1F
100
AcDbEntity
  8
0
100
AcDbBlockBegin
  2
*MODEL_SPACE
 70
     0
 10
0.0
 20
0.0
 30
0.0
  3
*MODEL_SPACE
  1

  0
ENDBLK
  5
21
330
1F
100
AcDbEntity
  8
0
100
AcDbBlockEnd
  0
BLOCK
  5
1C
330
1B
100
AcDbEntity
 67
     1
  8
0
100
AcDbBlockBegin
  2
*PAPER_SPACE
 70
     0
 10
0.0
 20
0.0
 30
0.0
  3
*PAPER_SPACE
  1

  0
ENDBLK
  5
1D
330
1B
100
AcDbEntity
 67
     1
  8
0
100
AcDbBlockEnd
  0
BLOCK
  5
2E
330
2B
100
AcDbEntity
  8
0
100
AcDbBlockBegin
  2
_DOT
 70
     0
 10
0.0
 20
0.0
 30
0.0
  3
_DOT
  1

  0
LWPOLYLINE
  5
2C
330
2B
100
AcDbEntity
  8
L
 62
     0
100
AcDbPolyline
 90
        2
 70
     1
 43
0.5
 10
-0.25
 20
0.0
 42
1.0
 10
0.25
 20
0.0
 42
1.0
  0
LINE
  5
2D
330
2B
100
AcDbEntity
  8
L
 62
     0
100
AcDbLine
 10
-0.5
 20
0.0
 30
0.0
 11
-1.0
 21
0.0
 31
0.0
  0
ENDBLK
  5
2F
330
2B
100
AcDbEntity
  8
0
100
AcDbBlockEnd
  0
BLOCK
  5
32
330
30
100
AcDbEntity
  8
0
 48
0.116666
100
AcDbBlockBegin
  2
_DOTSMALL
 70
     0
 10
0.0
 20
0.0
 30
0.0
  3
_DOTSMALL
  1

  0
LWPOLYLINE
  5
31
330
30
100
AcDbEntity
  8
0
  6
BYBLOCK
 62
     0
100
AcDbPolyline
 90
        2
 70
     1
 43
0.5
 10
-0.0625
 20
0.0
 42
1.0
 10
0.0625
 20
0.0
 42
1.0
  0
ENDBLK
  5
33
330
30
100
AcDbEntity
  8
0
 48
0.116666
100
AcDbBlockEnd
  0
BLOCK
  5
CD
330
C2
100
AcDbEntity
  8
0
100
AcDbBlockBegin
  2
*D3
 70
     1
 10
0.0
 20
0.0
 30
0.0
  3
*D3
  1

  0
LINE
  5
C3
330
C2
100
AcDbEntity
  8
0
 62
     0
100
AcDbLine
 10
6.314716535230314
 20
7.083251185840627
 30
0.0
 11
4.530980591744918
 21
7.083251185840627
 31
0.0
  0
LINE
  5
C4
330
C2
100
AcDbEntity
  8
0
 62
     0
100
AcDbLine
 10
6.314716535230314
 20
4.443251185840754
 30
0.0
 11
4.530980591744917
 21
4.443251185840755
 31
0.0
  0
LINE
  5
C5
330
C2
100
AcDbEntity
  8
0
 62
     0
100
AcDbLine
 10
4.710980591744918
 20
6.903251185840628
 30
0.0
 11
4.710980591744917
 21
5.943251185840691
 31
0.0
  0
LINE
  5
C6
330
C2
100
AcDbEntity
  8
0
 62
     0
100
AcDbLine
 10
4.710980591744917
 20
4.623251185840755
 30
0.0
 11
4.710980591744917
 21
5.583251185840691
 31
0.0
  0
SOLID
  5
C7
330
C2
100
AcDbEntity
  8
0
 62
     0
100
AcDbTrace
 10
4.680980591744917
 20
6.903251185840628
 30
0.0
 11
4.740980591744918
 21
6.903251185840628
 31
0.0
 12
4.710980591744918
 22
7.083251185840627
 32
0.0
 13
4.710980591744918
 23
7.083251185840627
 33
0.0
  0
SOLID
  5
C8
330
C2
100
AcDbEntity
  8
0
 62
     0
100
AcDbTrace
 10
4.680980591744916
 20
4.623251185840755
 30
0.0
 11
4.740980591744917
 21
4.623251185840755
 31
0.0
 12
4.710980591744917
 22
4.443251185840755
 32
0.0
 13
4.710980591744917
 23
4.443251185840755
 33
0.0
  0
MTEXT
  5
C9
330
C2
100
AcDbEntity
  8
0
 62
     0
100
AcDbMText
 10
4.710980591744916
 20
5.763251185840692
 30
0.0
 40
0.18
 41
0.0
 71
     5
 72
     1
  1
\A1;2.64
1001
ACAD
1000
MTEXTBEGIN
1070
    73
1070
     1
1070
    44
1040
1.0
1070
    74
1070
     0
1000
MTEXTEND
  0
POINT
  5
CA
330
C2
100
AcDbEntity
  8
DEFPOINTS
 62
     0
100
AcDbPoint
 10
6.377216535230314
 20
7.083251185840627
 30
0.0
  0
POINT
  5
CB
330
C2
100
AcDbEntity
  8
DEFPOINTS
 62
     0
100
AcDbPoint
 10
6.377216535230314
 20
4.443251185840754
 30
0.0
  0
POINT
  5
CC
330
C2
100
AcDbEntity
  8
DEFPOINTS
 62
     0
100
AcDbPoint
 10
4.710980591744917
 20
4.443251185840755
 30
0.0
  0
ENDBLK
  5
CE
330
C2
100
AcDbEntity
  8
0
100
AcDbBlockEnd
  0
BLOCK
  5
DB
330
D0
100
AcDbEntity
  8
0
100
AcDbBlockBegin
  2
*D4
 70
     1
 10
0.0
 20
0.0
 30
0.0
  3
*D4
  1

  0
LINE
  5
D1
330
D0
100
AcDbEntity
  8
0
 62
     0
100
AcDbLine
 10
5.582216535230354
 20
6.100751185840668
 30
0.0
 11
5.582216535230354
 21
7.919636580237543
 31
0.0
  0
LINE
  5
D2
330
D0
100
AcDbEntity
  8
0
 62
     0
100
AcDbLine
 10
7.602216535230223
 20
7.115751185840654
 30
0.0
 11
7.602216535230223
 21
7.919636580237543
 31
0.0
  0
LINE
  5
D3
330
D0
100
AcDbEntity
  8
0
 62
     0
100
AcDbLine
 10
5.762216535230354
 20
7.739636580237544
 30
0.0
 11
6.247216535230289
 21
7.739636580237544
 31
0.0
  0
LINE
  5
D4
330
D0
100
AcDbEntity
  8
0
 62
     0
100
AcDbLine
 10
7.422216535230223
 20
7.739636580237544
 30
0.0
 11
6.937216535230288
 21
7.739636580237544
 31
0.0
  0
SOLID
  5
D5
330
D0
100
AcDbEntity
  8
0
 62
     0
100
AcDbTrace
 10
5.762216535230354
 20
7.769636580237544
 30
0.0
 11
5.762216535230354
 21
7.709636580237543
 31
0.0
 12
5.582216535230354
 22
7.739636580237544
 32
0.0
 13
5.582216535230354
 23
7.739636580237544
 33
0.0
  0
SOLID
  5
D6
330
D0
100
AcDbEntity
  8
0
 62
     0
100
AcDbTrace
 10
7.422216535230223
 20
7.769636580237544
 30
0.0
 11
7.422216535230223
 21
7.709636580237543
 31
0.0
 12
7.602216535230223
 22
7.739636580237544
 32
0.0
 13
7.602216535230223
 23
7.739636580237544
 33
0.0
  0
MTEXT
  5
D7
330
D0
100
AcDbEntity
  8
0
 62
     0
100
AcDbMText
 10
6.592216535230289
 20
7.739636580237544
 30
0.0
 40
0.18
 41
0.0
 71
     5
 72
     1
  1
\A1;2.02
1001
ACAD
1000
MTEXTBEGIN
1070
    73
1070
     1
1070
    44
1040
1.0
1070
    74
1070
     0
1000
MTEXTEND
  0
POINT
  5
D8
330
D0
100
AcDbEntity
  8
DEFPOINTS
 62
     0
100
AcDbPoint
 10
5.582216535230354
 20
6.038251185840668
 30
0.0
  0
POINT
  5
D9
330
D0
100
AcDbEntity
  8
DEFPOINTS
 62
     0
100
AcDbPoint
 10
7.602216535230223
 20
7.053251185840654
 30
0.0
  0
POINT
  5
DA
330
D0
100
AcDbEntity
  8
DEFPOINTS
 62
     0
100
AcDbPoint
 10
7.602216535230223
 20
7.739636580237544
 30
0.0
  0
ENDBLK
  5
DC
330
D0
100
AcDbEntity
  8
0
100
AcDbBlockEnd
  0
ENDSEC
  0
SECTION
  2
ENTITIES
  0
LWPOLYLINE
  5
BD
330
1F
100
AcDbEntity
  8
L
 62
     5
 48
0.116666
100
AcDbPolyline
 90
        2
 70
     0
 43
0.028125
 10
5.250952208699246
 20
3.336720668600428
 10
7.856565355251078
 20
3.336720668600428
  0
TEXT
  5
BE
330
1F
100
AcDbEntity
  8
L
 62
     3
 48
0.116666
100
AcDbText
 10
5.344688051380344
 20
3.430456511281413
 30
0.0
 40
0.140625
  1
DUAL DIVIDER #2142
  7
REG
100
AcDbText
  0
TEXT
  5
BF
330
1F
100
AcDbEntity
  8
TX
 48
0.116666
100
AcDbText
 10
5.344688051380344
 20
3.149234825919442
 30
0.0
 40
0.09375
  1
SCALE : FULL SIZE
  7
REG
 11
5.344688051380344
 21
3.242984825919442
 31
0.0
100
AcDbText
 73
     3
  0
DIMENSION
  5
C1
330
1F
100
AcDbEntity
  8
0
100
AcDbDimension
  2
*D3
 10
4.710980591744917
 20
4.443251185840755
 30
0.0
 11
4.710980591744916
 21
5.763251185840692
 31
0.0
 70
    32
  3
STANDARD
100
AcDbAlignedDimension
 13
6.377216535230314
 23
7.083251185840627
 33
0.0
 14
6.377216535230314
 24
4.443251185840754
 34
0.0
 50
90.0
100
AcDbRotatedDimension
  0
DIMENSION
  5
CF
330
1F
100
AcDbEntity
  8
0
100
AcDbDimension
  2
*D4
 10
7.602216535230223
 20
7.739636580237544
 30
0.0
 11
6.592216535230289
 21
7.739636580237544
 31
0.0
 70
    32
  3
STANDARD
100
AcDbAlignedDimension
 13
5.582216535230354
 23
6.038251185840668
 33
0.0
 14
7.602216535230223
 24
7.053251185840654
 34
0.0
100
AcDbRotatedDimension
  0
LWPOLYLINE
  5
1CE
330
1F
100
AcDbEntity
  8
L
 62
     5
100
AcDbPolyline
 90
      222
 70
     1
 43
0.0
 10
7.480591465194814
 20
4.776441330631427
 42
-0.3978243926261582
 10
7.537216535230395
 20
4.716536323764476
 10
7.537216535230395
 20
4.503251185840699
 10
7.497216535230204
 20
4.503251185840699
 42
0.4142135623730951
 10
7.437216535230259
 20
4.443251185840754
 10
7.572216535230477
 20
4.443251185840754
 42
0.4142135623742048
 10
7.602216535230223
 20
4.473251185840727
 10
7.602216535230336
 20
7.053251185840654
 42
0.4142135623742051
 10
7.572216535230477
 20
7.083251185840627
 10
7.437216535230259
 20
7.083251185840627
 42
0.4142135623730951
 10
7.497216535230204
 20
7.023251185840681
 10
7.537216535230395
 20
7.023251185840681
 10
7.537216535230398
 20
6.809966047916905
 42
-0.3978243926261582
 10
7.480591465194816
 20
6.750061041049921
 10
6.472216535230341
 20
6.693251185840754
 10
6.472216535230341
 20
6.753251185840699
 10
6.412216535230395
 20
6.753251185840699
 10
6.412216535230395
 20
7.023251185840681
 10
6.552216535230495
 20
7.023251185840696
 42
0.4142135623730951
 10
6.612216535230441
 20
7.083251185840627
 10
6.522216535230295
 20
7.083251185840627
 10
6.512216535230532
 20
7.073251185840636
 10
6.502216535230314
 20
7.083251185840627
 10
6.377216535230314
 20
7.083251185840627
 42
0.4142135623730951
 10
6.347216535230341
 20
7.053251185840654
 10
6.347216535230341
 20
6.993251185840708
 42
-0.4142135623730951
 10
6.317216535230368
 20
6.963251185840736
 10
5.965483094887662
 20
6.963251185840777
 42
2.130662386280889
 10
5.965483094887627
 20
6.913251185840554
 10
6.317216535230368
 20
6.913251185840554
 42
-0.4142135623730951
 10
6.347216535230341
 20
6.883251185840581
 10
6.347216535230341
 20
6.703251185840745
 42
-0.4142135623730951
 10
6.317216535230368
 20
6.673251185840772
 10
6.272216535230295
 20
6.673251185840772
 42
1.000000000000003
 10
6.272216535230295
 20
6.62325118584059
 10
7.412216535230395
 20
6.62325118584059
 42
-0.4142135623730951
 10
7.472216535230341
 20
6.563251185840645
 10
7.472216535230227
 20
6.078251185840745
 42
-0.4142135623725405
 10
7.412216535230395
 20
6.018251185840572
 10
6.799744302727599
 20
6.018251185840572
 10
6.762216535230532
 20
5.953251185840745
 10
6.722216535230341
 20
5.953251185840745
 10
6.72221653523042
 20
6.006251142476603
 42
0.7673303125691766
 10
6.699824201846336
 20
6.012251136410359
 10
6.665760564502857
 20
5.953251185840745
 10
6.632216535230423
 20
5.953251185840745
 10
6.632216535230274
 20
6.006251142476603
 42
0.7673303125654131
 10
6.609824201846418
 20
6.012251136410359
 10
6.575760564502711
 20
5.953251185840745
 10
6.542216535230277
 20
5.953251185840745
 10
6.542216535230243
 20
6.006251142476603
 42
0.7673303125724351
 10
6.5198242018465
 20
6.012251136410359
 10
6.485760564502793
 20
5.953251185840745
 10
6.452216535230359
 20
5.953251185840745
 10
6.452216535230438
 20
6.006251142476603
 42
0.7673303125691766
 10
6.429824201846354
 20
6.012251136410359
 10
6.395760564502875
 20
5.953251185840745
 10
6.362216535230441
 20
5.953251185840745
 10
6.362216535230293
 20
6.006251142476603
 42
0.7673303125654131
 10
6.339824201846436
 20
6.012251136410359
 10
6.30576056450273
 20
5.953251185840745
 10
6.272216535230295
 20
5.953251185840745
 10
6.272216535230261
 20
6.006251142476603
 42
0.7673303125724351
 10
6.249824201846518
 20
6.012251136410359
 10
6.215760564502812
 20
5.953251185840745
 10
6.182216535230377
 20
5.953251185840745
 10
6.182216535230456
 20
6.006251142476603
 42
0.7673303125691766
 10
6.159824201846372
 20
6.012251136410359
 10
6.125760564502893
 20
5.953251185840745
 10
6.092216535230459
 20
5.953251185840745
 10
6.092216535230311
 20
6.006251142476603
 42
0.7673303125654131
 10
6.069824201846454
 20
6.012251136410359
 10
6.035760564502748
 20
5.953251185840745
 10
6.002216535230314
 20
5.953251185840745
 10
6.002216535230279
 20
6.006251142476603
 42
0.7673303125724351
 10
5.979824201846536
 20
6.012251136410359
 10
5.945760564502602
 20
5.953251185840745
 10
5.742216535230323
 20
5.953251185840745
 42
-0.4142135623753149
 10
5.71221653523035
 20
5.983251185840718
 10
5.712216535230577
 20
6.033251185840672
 42
0.4142135623753149
 10
5.682216535230377
 20
6.063251185840645
 10
5.607216535230332
 20
6.063251185840645
 42
1.000000000000003
 10
5.607216535230332
 20
6.01325118584069
 10
5.632216535230423
 20
6.01325118584069
 42
-0.4142135623730951
 10
5.662216535230395
 20
5.983251185840718
 10
5.662216535230395
 20
5.91176590446631
 10
5.71397389454329
 20
5.860008545153657
 42
0.4860029169985307
 10
5.723342175237899
 20
5.861132241385721
 10
5.738090895222824
 20
5.885370130295694
 42
-0.5620869863727989
 10
5.748342175237763
 20
5.885370130295687
 10
5.763090895222915
 20
5.861132241385714
 42
0.5620869863727993
 10
5.773342175237853
 20
5.861132241385721
 10
5.788090895222882
 20
5.885370130295632
 42
-0.5620869863686295
 10
5.798342175237944
 20
5.885370130295687
 10
5.813090895222631
 20
5.861132241385707
 42
0.56208698637511
 10
5.823342175238035
 20
5.861132241385721
 10
5.83809089522267
 20
5.885370130295732
 42
-0.5620869863686295
 10
5.848342175237899
 20
5.885370130295687
 10
5.863090895222824
 20
5.861132241385714
 42
0.5620869863727993
 10
5.873342175237763
 20
5.861132241385721
 10
5.888090895222915
 20
5.885370130295694
 42
-0.5620869863727989
 10
5.898342175237853
 20
5.885370130295687
 10
5.913090895222787
 20
5.861132241385719
 42
0.5620910525129908
 10
5.923342213786423
 20
5.861132304737029
 10
5.938090895222631
 20
5.8853701302957
 42
-0.5620869863751103
 10
5.948342175238035
 20
5.885370130295687
 10
5.96309089522267
 20
5.861132241385676
 42
0.5620869863686295
 10
5.973342175237899
 20
5.861132241385721
 10
5.988090895222824
 20
5.885370130295694
 42
-0.5620869863727989
 10
5.998342175237763
 20
5.885370130295687
 10
6.013090895222915
 20
5.861132241385714
 42
0.5620869863727993
 10
6.023342175237853
 20
5.861132241385721
 10
6.038090895222827
 20
5.885370130295664
 42
-0.5620808059742231
 10
6.048342116643748
 20
5.885370226586847
 10
6.063090846992785
 20
5.861132320647701
 42
0.5620957999452299
 10
6.073342210563719
 20
5.86113229944036
 10
6.088090895222737
 20
5.885370130295691
 42
-0.2617834247933829
 10
6.093216535230208
 20
5.88825118584069
 10
6.182216535230377
 20
5.88825118584069
 42
-0.4142135623753149
 10
6.21221653523035
 20
5.858251185840718
 10
6.212216535230577
 20
5.668251185840663
 42
-0.4142135623753149
 10
6.182216535230377
 20
5.63825118584069
 10
6.068216535230344
 20
5.638251185840684
 42
-0.261783424794858
 10
6.063090895222654
 20
5.641132241385694
 10
6.048342175238019
 20
5.665370130295705
 42
0.5620869863686295
 10
6.03809089522279
 20
5.665370130295659
 10
6.023342175237866
 20
5.641132241385687
 42
-0.5620869863727993
 10
6.013090895222926
 20
5.641132241385694
 10
5.998342175237774
 20
5.665370130295666
 42
0.5620869863727989
 10
5.988090895222835
 20
5.665370130295659
 10
5.973342175237807
 20
5.64113224138575
 42
-0.5620869863686295
 10
5.963090895222745
 20
5.641132241385694
 10
5.948342175238058
 20
5.665370130295673
 42
0.5620869863751103
 10
5.938090895222654
 20
5.665370130295659
 10
5.923342175238019
 20
5.641132241385649
 42
-0.5620869863686294
 10
5.91309089522279
 20
5.641132241385694
 10
5.898342175237865
 20
5.665370130295666
 42
0.5620869863727989
 10
5.888090895222926
 20
5.665370130295659
 10
5.873342175237774
 20
5.641132241385687
 42
-0.5620869863727993
 10
5.863090895222835
 20
5.641132241385694
 10
5.848342175237808
 20
5.665370130295604
 42
0.5620869863686295
 10
5.838090895222745
 20
5.665370130295659
 10
5.823342175238058
 20
5.641132241385681
 42
-0.56208698637511
 10
5.813090895222654
 20
5.641132241385694
 10
5.798342175238019
 20
5.665370130295705
 42
0.5620869863686295
 10
5.78809089522279
 20
5.665370130295659
 10
5.773342175237865
 20
5.641132241385687
 42
-0.5620869863727993
 10
5.763090895222926
 20
5.641132241385694
 10
5.748342175237774
 20
5.665370130295666
 42
0.5620869863727989
 10
5.738090895222835
 20
5.665370130295659
 10
5.723342175237796
 20
5.641132241385756
 42
-0.261785907127898
 10
5.718216479475454
 20
5.63825118584069
 10
5.693216535230344
 20
5.63825118584069
 10
5.662216535230395
 20
5.607251185840741
 10
5.662216535230395
 20
5.543251185840663
 42
-0.4142135623730951
 10
5.632216535230423
 20
5.51325118584069
 10
5.607216535230332
 20
5.51325118584069
 42
1.000000000000003
 10
5.607216535230332
 20
5.463251185840736
 10
5.682216535230377
 20
5.463251185840736
 42
0.4142135623753149
 10
5.71221653523035
 20
5.493251185840708
 10
5.712216535230123
 20
5.543251185840663
 42
-0.4142135623753149
 10
5.742216535230323
 20
5.573251185840636
 10
5.945760564502602
 20
5.573251185840636
 10
5.979824201846497
 20
5.514251235270998
 42
0.7673303125724356
 10
6.002216535230314
 20
5.520251229204777
 10
6.002216535230314
 20
5.573251185840636
 10
6.035760564502748
 20
5.573251185840636
 10
6.069824201846365
 20
5.51425123527097
 42
0.7673303125654134
 10
6.092216535230459
 20
5.520251229204777
 10
6.092216535230459
 20
5.573251185840636
 10
6.125760564502893
 20
5.573251185840636
 10
6.159824201846454
 20
5.514251235271069
 42
0.7673303125691763
 10
6.182216535230377
 20
5.520251229204777
 10
6.182216535230377
 20
5.573251185840636
 10
6.215760564502812
 20
5.573251185840636
 10
6.249824201846479
 20
5.514251235270998
 42
0.7673303125724356
 10
6.272216535230295
 20
5.520251229204777
 10
6.272216535230295
 20
5.573251185840636
 10
6.30576056450273
 20
5.573251185840636
 10
6.339824201846347
 20
5.51425123527097
 42
0.7673303125654134
 10
6.362216535230441
 20
5.520251229204777
 10
6.362216535230441
 20
5.573251185840636
 10
6.395760564502875
 20
5.573251185840636
 10
6.429824201846372
 20
5.514251235271032
 42
0.76733031258322
 10
6.452216535230359
 20
5.520251229204777
 10
6.452216535230359
 20
5.573251185840636
 10
6.485760564502793
 20
5.573251185840636
 10
6.519824201846461
 20
5.514251235270998
 42
0.7673303125724356
 10
6.542216535230277
 20
5.520251229204777
 10
6.542216535230277
 20
5.573251185840636
 10
6.575760564502711
 20
5.573251185840636
 10
6.609824201846329
 20
5.51425123527097
 42
0.7673303125654134
 10
6.632216535230423
 20
5.520251229204777
 10
6.632216535230423
 20
5.573251185840636
 10
6.665760564502857
 20
5.573251185840636
 10
6.699824201846418
 20
5.514251235271069
 42
0.7673303125691763
 10
6.722216535230341
 20
5.520251229204777
 10
6.722216535230341
 20
5.573251185840636
 10
6.762216535230532
 20
5.573251185840636
 10
6.799744302727599
 20
5.508251185840581
 10
7.412216535230395
 20
5.508251185840581
 42
-0.4142135623730951
 10
7.472216535230341
 20
5.448251185840636
 10
7.472216535230227
 20
4.963251185840736
 42
-0.4142135623725405
 10
7.412216535230395
 20
4.903251185840563
 10
6.272216535230295
 20
4.903251185840563
 42
1.000000000000003
 10
6.272216535230295
 20
4.853251185840608
 10
6.317216535230368
 20
4.853251185840608
 42
-0.4142135623730951
 10
6.347216535230341
 20
4.823251185840636
 10
6.347216535230341
 20
4.643251185840572
 42
-0.4142135623730951
 10
6.317216535230368
 20
4.613251185840599
 10
5.965483094887622
 20
4.613251185840594
 42
2.130662386287081
 10
5.965483094887627
 20
4.563251185840645
 10
6.317216535230368
 20
4.563251185840645
 42
-0.4142135623730951
 10
6.347216535230341
 20
4.533251185840672
 10
6.347216535230341
 20
4.473251185840727
 42
0.4142135623730951
 10
6.377216535230314
 20
4.443251185840754
 10
6.612216535230427
 20
4.443251185840754
 42
0.4142135623730951
 10
6.552216535230495
 20
4.503251185840699
 10
6.412216535230395
 20
4.503251185840699
 10
6.412216535230395
 20
4.773251185840681
 10
6.472216535230341
 20
4.773251185840681
 10
6.472216535230341
 20
4.833251185840627
  0
LWPOLYLINE
  5
25C
330
1F
100
AcDbEntity
  8
L
 62
     5
100
AcDbPolyline
 90
       15
 70
     1
 43
0.0
 10
6.277216535230177
 20
5.858251185840718
 42
-0.4142135623753149
 10
6.307216535230377
 20
5.88825118584069
 10
6.799744302727599
 20
5.88825118584069
 10
6.837272070225122
 20
5.953251185840745
 10
7.412216535230395
 20
5.953251185840745
 42
-0.4142135623725399
 10
7.472216535230227
 20
5.893251185840572
 10
7.472216535230341
 20
5.893251185840572
 10
7.472216535230341
 20
5.633251185840581
 42
-0.4142135623730951
 10
7.412216535230395
 20
5.573251185840636
 10
6.837272070225122
 20
5.573251185840636
 10
6.799744302727599
 20
5.63825118584069
 10
6.307216535230377
 20
5.63825118584069
 42
-0.4142135623753149
 10
6.277216535230177
 20
5.668251185840663
 10
6.277216535230405
 20
5.668251185840663
 10
6.277216535230405
 20
5.858251185840718
  0
ENDSEC
  0
SECTION
  2
OBJECTS
  0
DICTIONARY
  5
C
330
0
100
AcDbDictionary
  3
ACAD_GROUP
350
D
  3
ACAD_LAYOUT
350
1A
  3
ACAD_MLINESTYLE
350
17
  3
ACAD_PLOTSETTINGS
350
19
  3
ACAD_PLOTSTYLENAME
350
E
  3
ACDBHEADERROUNDTRIPXREC
350
2BF
  0
DICTIONARY
  5
2E1
330
1F
100
AcDbDictionary
280
     1
  3
ACAD_LAYOUTSELFREF
360
2E2
  0
DICTIONARY
  5
2DF
330
1B
100
AcDbDictionary
280
     1
  3
ACAD_LAYOUTSELFREF
360
2E0
  0
DICTIONARY
  5
D
102
{ACAD_REACTORS
330
C
102
}
330
C
100
AcDbDictionary
  0
DICTIONARY
  5
1A
102
{ACAD_REACTORS
330
C
102
}
330
C
100
AcDbDictionary
  0
DICTIONARY
  5
17
102
{ACAD_REACTORS
330
C
102
}
330
C
100
AcDbDictionary
  3
STANDARD
350
18
  0
DICTIONARY
  5
19
102
{ACAD_REACTORS
330
C
102
}
330
C
100
AcDbDictionary
  0
ACDBDICTIONARYWDFLT
  5
E
102
{ACAD_REACTORS
330
C
102
}
330
C
100
AcDbDictionary
281
     1
  3
Normal
350
F
100
AcDbDictionaryWithDefault
340
F
  0
DICTIONARY
  5
2BF
102
{ACAD_REACTORS
330
C
102
}
330
C
100
AcDbDictionary
  3
CEPSNTYPE
350
2C9
  3
FINGERPRINTGUID
350
2CA
  3
HYPERLINKBASE
350
2C2
  3
INSUNITS
350
2C8
  3
LAYOUTDICT
350
2C4
  3
LWETCUNION
350
2C7
  3
PLOTSETDICT
350
2C5
  3
PLOTSTYLNAMDICT
350
2C6
  3
PSVPSCALE
350
2CC
  3
PUCSBASE
350
2CF
  3
PUCSORGBACK
350
2D5
  3
PUCSORGBOTTOM
350
2D1
  3
PUCSORGFRONT
350
2D4
  3
PUCSORGLEFT
350
2D2
  3
PUCSORGRIGHT
350
2D3
  3
PUCSORGTOP
350
2D0
  3
PUCSORTHOREF
350
2CD
  3
PUCSORTHOVIEW
350
2CE
  3
STYLESHEET
350
2C3
  3
TSTACKALIGN
350
2C0
  3
TSTACKSIZE
350
2C1
  3
UCSBASE
350
2D8
  3
UCSORGBACK
350
2DE
  3
UCSORGBOTTOM
350
2DA
  3
UCSORGFRONT
350
2DD
  3
UCSORGLEFT
350
2DB
  3
UCSORGRIGHT
350
2DC
  3
UCSORGTOP
350
2D9
  3
UCSORTHOREF
350
2D6
  3
UCSORTHOVIEW
350
2D7
  3
VERSIONGUID
350
2CB
  0
XRECORD
  5
2E2
102
{ACAD_REACTORS
330
2E1
102
}
330
2E1
100
AcDbXrecord
340
1F
  0
XRECORD
  5
2E0
102
{ACAD_REACTORS
330
2DF
102
}
330
2DF
100
AcDbXrecord
340
1B
  0
MLINESTYLE
  5
18
102
{ACAD_REACTORS
330
17
102
}
330
17
100
AcDbMlineStyle
  2
STANDARD
 70
     0
  3

 62
   256
 51
90.0
 52
90.0
 71
     2
 49
0.5
 62
   256
  6
BYLAYER
 49
-0.5
 62
   256
  6
BYLAYER
  0
ACDBPLACEHOLDER
  5
F
102
{ACAD_REACTORS
330
E
102
}
330
E
100
AcDbPlaceHolder
280
     0
  0
XRECORD
  5
2C9
102
{ACAD_REACTORS
330
2BF
102
}
330
2BF
100
AcDbXrecord
 90
        0
  0
XRECORD
  5
2CA
102
{ACAD_REACTORS
330
2BF
102
}
330
2BF
100
AcDbXrecord
  1
{DC175E3D-AE85-11D5-9A93-0040C77E826B}
  0
XRECORD
  5
2C2
102
{ACAD_REACTORS
330
2BF
102
}
330
2BF
100
AcDbXrecord
  1

  0
XRECORD
  5
2C8
102
{ACAD_REACTORS
330
2BF
102
}
330
2BF
100
AcDbXrecord
 90
        1
  0
XRECORD
  5
2C4
102
{ACAD_REACTORS
330
2BF
102
}
330
2BF
100
AcDbXrecord
340
1A
  0
XRECORD
  5
2C7
102
{ACAD_REACTORS
330
2BF
102
}
330
2BF
100
AcDbXrecord
 90
    10781
  0
XRECORD
  5
2C5
102
{ACAD_REACTORS
330
2BF
102
}
330
2BF
100
AcDbXrecord
340
19
  0
XRECORD
  5
2C6
102
{ACAD_REACTORS
330
2BF
102
}
330
2BF
100
AcDbXrecord
340
E
  0
XRECORD
  5
2CC
102
{ACAD_REACTORS
330
2BF
102
}
330
2BF
100
AcDbXrecord
 40
0.0
  0
XRECORD
  5
2CF
102
{ACAD_REACTORS
330
2BF
102
}
330
2BF
100
AcDbXrecord
340
0
  0
XRECORD
  5
2D5
102
{ACAD_REACTORS
330
2BF
102
}
330
2BF
100
AcDbXrecord
 10
0.0
 20
0.0
 30
0.0
  0
XRECORD
  5
2D1
102
{ACAD_REACTORS
330
2BF
102
}
330
2BF
100
AcDbXrecord
 10
0.0
 20
0.0
 30
0.0
  0
XRECORD
  5
2D4
102
{ACAD_REACTORS
330
2BF
102
}
330
2BF
100
AcDbXrecord
 10
0.0
 20
0.0
 30
0.0
  0
XRECORD
  5
2D2
102
{ACAD_REACTORS
330
2BF
102
}
330
2BF
100
AcDbXrecord
 10
0.0
 20
0.0
 30
0.0
  0
XRECORD
  5
2D3
102
{ACAD_REACTORS
330
2BF
102
}
330
2BF
100
AcDbXrecord
 10
0.0
 20
0.0
 30
0.0
  0
XRECORD
  5
2D0
102
{ACAD_REACTORS
330
2BF
102
}
330
2BF
100
AcDbXrecord
 10
0.0
 20
0.0
 30
0.0
  0
XRECORD
  5
2CD
102
{ACAD_REACTORS
330
2BF
102
}
330
2BF
100
AcDbXrecord
340
0
  0
XRECORD
  5
2CE
102
{ACAD_REACTORS
330
2BF
102
}
330
2BF
100
AcDbXrecord
 70
     0
  0
XRECORD
  5
2C3
102
{ACAD_REACTORS
330
2BF
102
}
330
2BF
100
AcDbXrecord
  1

  0
XRECORD
  5
2C0
102
{ACAD_REACTORS
330
2BF
102
}
330
2BF
100
AcDbXrecord
 90
        1
  0
XRECORD
  5
2C1
102
{ACAD_REACTORS
330
2BF
102
}
330
2BF
100
AcDbXrecord
 90
       70
  0
XRECORD
  5
2D8
102
{ACAD_REACTORS
330
2BF
102
}
330
2BF
100
AcDbXrecord
340
0
  0
XRECORD
  5
2DE
102
{ACAD_REACTORS
330
2BF
102
}
330
2BF
100
AcDbXrecord
 10
0.0
 20
0.0
 30
0.0
  0
XRECORD
  5
2DA
102
{ACAD_REACTORS
330
2BF
102
}
330
2BF
100
AcDbXrecord
 10
0.0
 20
0.0
 30
0.0
  0
XRECORD
  5
2DD
102
{ACAD_REACTORS
330
2BF
102
}
330
2BF
100
AcDbXrecord
 10
0.0
 20
0.0
 30
0.0
  0
XRECORD
  5
2DB
102
{ACAD_REACTORS
330
2BF
102
}
330
2BF
100
AcDbXrecord
 10
0.0
 20
0.0
 30
0.0
  0
XRECORD
  5
2DC
102
{ACAD_REACTORS
330
2BF
102
}
330
2BF
100
AcDbXrecord
 10
0.0
 20
0.0
 30
0.0
  0
XRECORD
  5
2D9
102
{ACAD_REACTORS
330
2BF
102
}
330
2BF
100
AcDbXrecord
 10
0.0
 20
0.0
 30
0.0
  0
XRECORD
  5
2D6
102
{ACAD_REACTORS
330
2BF
102
}
330
2BF
100
AcDbXrecord
340
0
  0
XRECORD
  5
2D7
102
{ACAD_REACTORS
330
2BF
102
}
330
2BF
100
AcDbXrecord
 70
     0
  0
XRECORD
  5
2CB
102
{ACAD_REACTORS
330
2BF
102
}
330
2BF
100
AcDbXrecord
  1
{76C35A45-A095-430D-A02D-A30497518400}
  0
ENDSEC
  0
EOF
